[ Colo ][Hi-Def][Mini-HD] บันทึกคอนเสิร์ต DJ On Stage (2011) [Mini-hidef-dvd quality-concert - 720i/p - พากย์ : ไทย / บรรยาย : - ] ** CtHts **



Downloadzb_[Mini-hidef-dvd quality-concert ] บันทึกคอนเสิร์ต DJ.On Stage.2011 720p_private.torrent  
Info hashcc226fbdd1ccfc3c18a27c994314f856522cd942
Social Network
รูป http://postto.me/is/minihidefdvdqualityconcertdj.onstage.2011720p.mkv_snapshot_01.27.08_2011.10.09_12.15.21.jpg
รายละเอียด

บันทึกคอนเสิร์ต DJ On Stage (2011)

บันทึกคอนเสิร์ต DJ.On Stage.2011
ดีเจ เอ-ไทม์ โชว์กึ๋นสุดพลัง แฟนคลับหัวเราะท้องแข็งเวที DJs. On Stage (แกรมมี่)

       หวิดทำหอประชุมใหญ่มหาวิทยาลัยธรรมศาสตร์แตก!! สำหรับ DJs. ON STAGE คอนเสิร์ตของเหล่าดีเจฝีปากกล้า จาก 4 คลื่นวิทยุในเครือ เอ-ไทม์ มีเดีย ทั้ง CHILL
FM 89  ,  HOT 915  ,  94 EFM และ GREEN WAVE 106.5 FM คอนเสิร์ตที่รวบรวมดีเจกว่า 40 คน ยกก๊วนขบวนฮาขึ้นมาโชว์บนเวทีแบบไม่มีใครยอมน้อย
หน้า งานนี้บรรดาแฟนคลับดีเจพร้อมใจกันขนป้ายไฟไปเชียร์แน่นหอประชุม

       เปิดตัวด้วย 2 ดีเจคู่ขวัญ กฤษณ์-มดดำ ในเพลง คู่กัด เพื่อตอกย้ำว่าทั้งคู่ยังรักกัน หลังจูบปาก คืนดีกลับมาจัดรายการด้วยกันอีกครั้ง แถมจำลองช่วงแฉแต่เช้าขึ้นมาบนเวทีให้
กฤษณ์-มดดำ แฉดีเจเอ-ไทม์ กันสด ๆ เรียกว่าดีเจทั้ง 4 คลื่น โดนแฉกันถ้วนหน้า ต่อด้วยซีนที่ทำเอาผู้ชมน้ำลายหก กับการแสดง Boxer Boy จากบรรดาดีเจหุ่นแน่น ๆ อย่าง
เต้ย-พุฒ-เจได-เผือก-โตโต้ จาก HOT 915 และ ปอ-โจ๊ก-จอมยุ่ง จาก 94EFM แบบโนเซ็นเซอร์ใส่กางเกงบ็อกเซอร์ตัวเดียว เปลือยท่อนบน โชว์หุ่นแมนกล้ามเป็นกล้าม ซิกแพคเ
ป็นลูก ๆ ยั่วน้ำลายผู้ชมได้ดีทีเดียว

******************************************************************

Format                          : Matroska
File size                        : 4.29 GiB
Duration                        : 3h 49mn
Overall bit rate                : 2 679 Kbps
Movie name                      : บันทึกคอนเสิร์ต DJ On Stage 720p
Encoded date                    : UTC 2011-10-08 18:44:01
Writing application              : mkvmerge v3.4.0 ('Rapunzel') built on May 15 2010 09:38:20
Writing library                  : libebml v0.8.0 + libmatroska v0.9.0

Video
ID                              : 1
Format                          : AVC
Format/Info                      : Advanced Video Codec
Format profile                  : High@L4.0
Format settings, CABAC          : Yes
Format settings, ReFrames        : 3 frames
Muxing mode                      : Container profile=Unknown@4.0
Codec ID                        : V_MPEG4/ISO/AVC
Duration                        : 3h 49mn
Bit rate                        : 2 294 Kbps
Width                            : 1 280 pixels
Height                          : 720 pixels
Display aspect ratio            : 16:9
Frame rate                      : 25.000 fps
Color space                      : YUV
Chroma subsampling              : 4:2:0
Bit depth                        : 8 bits
Scan type                        : Progressive
Bits/(Pixel*Frame)              : 0.100
Stream size                      : 3.59 GiB (84%)
Writing library                  : x264 core 114 r1924 08d04a4
Encoding settings                : cabac=1 / ref=3 / deblock=1:0:0 / analyse=0x3:0x133 / me=umh / subme=7 / psy=1 / psy_rd
=1.00:0.00 / mixed_ref=1 / me_range=16 / chroma_me=1 / trellis=1 / 8x8dct=1 / cqm=0 / deadzone=21,11 / fast_pskip=1 /
chroma_qp_offset=-2 / threads=9 / sliced_threads=0 / nr=0 / decimate=1 / interlaced=0 / constrained_intra=0 / bframe
s=3 / b_pyramid=0 / b_adapt=1 / b_bias=0 / direct=1 / weightb=1 / open_gop=0 / weightp=2 / keyint=250 / keyint_
min=25 / scenecut=40 / intra_refresh=0 / rc_lookahead=40 / rc=2pass / mbtree=1 / bitrate=2294 / ratetol=1.0 / qcomp
=0.60 / qpmin=0 / qpmax=69 / qpstep=4 / cplxblur=20.0 / qblur=0.5 / vbv_maxrate=25000 / vbv_bufsize=25000 / nal_
hrd=vbr / ip_ratio=1.40 / aq=1:1.00

Audio
ID                              : 2
Format                          : AC-3
Format/Info                      : Audio Coding 3
Mode extension                  : CM (complete main)
Codec ID                        : A_AC3
Duration                        : 3h 49mn
Bit rate mode                    : Constant
Bit rate                        : 384 Kbps
Channel(s)                      : 6 channels
Channel positions                : Front: L C R, Side: L R, LFE
Sampling rate                    : 48.0 KHz
Stream size                      : 629 MiB (14%)
Language                        : Thai

SS


*********
อ่านซักนิดก่อน Load ครับ

[Mini-hidef-dvd quality-concert ] บันทึกคอนเสิร์ต DJ.On Stage.2011 720p-CtHts
-ขอบคุณต้นฉบับจากข้างบ้าน
-Rip-by komkam


Shared by society CtHts [Coming together.Happy to share.]

เครดิตทีมงาน
Coming together.Happy to share.



* * * * * * * * * * * * * * * * * * * * * * * * * * * * * * * * * * * * * * * * * * * * *

ห้ามนำไปจำหน่ายเพื่อการพาณิชย์


สนับสนุนโดย ทีมงานสังคมแห่งการแบ่งปัน
เครดิตทีมงาน CtHts -> Coming together.Happy to share.
[nfsphuket , rimudi , darkvador , JFC , netboy , darnphuket / rakkhunna , GG44 , komkam , maxbomb , bOyziOO , DRAGONFAT , vzio , freeandfree , AnfieldRoad , Champ14Za , utd , KingMovie , yorukung , IINOYII , Legendrider , kiatplk , supanyap , jukjunjao , khampeeaew , sakworbit , ShungOu , LiverPoolS , stang , boysiambit , panad , jeab200 and mozed]



อย่าลืมแวะเข้ามากดถูกใจเพื่อเป็นกำลังใจให้กับทีมงานทุกคนด้วยนะครับ

* * * * * * * * * * * * * * * * * * * * * * * * * * * * * * * * * * * * * * * * * * * * *

* * * * * * * * * * * * * * * * * * * * * * * * * * * * * *

* ข้อตกลงในการปล่อยไฟล์ ของผมครับ *
- ผมจะทำการปล่อยไฟล์ DVD / VCD ประมาณ 3 วัน
- ถ้าไฟล์ DVD ขนาดใหญ่ จับเป็นก้อนประมาณ 7 วันครับ
- หากพบว่า ค่าอัพต่ำกว่า 50 KB/s ผมจะพิจารณาเป็นกรณีๆ ไปนะครับผมอาจจะลบไฟล์ ก่อนเวลาที่กำหนดครับ . . . .
- ถ้าเกิดยังเห็น ผม Seed อยู่แสดงว่าผมยังปล่อยอยู่นะครับ สามารถ PM มาแจ้งได้ครับ
- แต่ถ้าไม่เห็นผม Seed แล้วแสดงว่าข้อมูล File ดังกล่าว ไม่อยู่บนโคแล้วครับ
- ไฟล์ดังกล่าว นำมาจากเพื่อนบ้าน ยังไม่มีการ Test ไฟล์ แต่อย่างใด จึงไม่สามารถตอบปัญหาบางประการได้ครับ
- Load เสร็จแล้ว ช่วยกรุณา Seed ต่อด้วยนะครับ เนื่องจาก พื้นที่ใช้สอยมีจำนวนจำกัดครับ
- สนับสนุนการปล่อยไฟล์จาก zido-COLO ครับ


- ขอขอบพระคุณที่มาอุดหนุนครับผม  From : IInJIIsJIIsJ~*~bOyziOO


ท่านสามารถดูประวัติการ Upload File ของผม
ได้ที่นี่ครับ - - ->



ท่านสามารถสมัครเป็นสมาชิก VIP
ได้ที่นี่ครับ - - ->


กรุณา รณรงค์ช่วยกันปล่อยไฟล์ด้วยนะครับ

* * * * * * * * * * * * * * * * * * * * * * * * * * * * * * * * * * * * * * * * * * * * *

รณรงค์ช่วยกัน Comment เพื่อเป็นกำลังใจเจ้าของไฟล์ด้วยนะครับ เนื่องจากไฟล์ทุกไฟล์นั้นต้องใช้เวลาและความพยายามพอควรเพื่อจะนำมาแบ่งปันโปรดเห็นใจผู้อัพโหลดไฟล์ทุกคนด้วยนะครับ ไม่ใช่แต่ผมคนเดียวนะครับขอบคุณครับ
ประเภทภาพยนตร์ Hi-Def, Blu-ray
การเคลื่อนไหวครั้งสุดท้าย 226d 15:33:58 ago
ขนาด4.29 GB (4,605,066,512 bytes)
เริ่ม2011-10-13 13:36:29
คนดู595
คนโหลด1171
ความเร็วไม่มีความเร็วในการเชื่อมต่อ
โหลดเสร็จ110 time(s)
เจ้าของIInJIIsJIIsJ~*~bOyziOOสุดยอดแห่ง zbeasy
เรทติ้ง1 Point   
Num files
[See full list]
1 files
Peers
[See full list]
0 seeder(s), 0 leecher(s) = 0 peer(s) total
ของขวัญวันเกิด, ของขวัญเซอร์ไพรส์, พรีออเดอร์, preorder, ซื้อของอีเบย์
เว็บไซต์นี้ เป็นเว็บไซต์ที่สมาชิกทุกท่าน สามารถนำข้อมูลเข้ามาแลกเปลี่ยนกันเพื่อความบันเทิงส่วนบุคคล ซึ่งทางเว็บไซต์เป็นเพียงสื่อกลางในการในการระบุว่าสมาชิกท่านใดมีข้อมูลนั้นๆอยู่เท่านั้น โดยแฟ้มข้อมูลต่างๆที่อยู่ในเว็บไซต์แห่งนี้ ไม่สามารถเปิดดูออนไลน์ผ่านเว็บไซต์ได้แต่อย่างใด จุดประสงค์ของทางเว็บไซต์ไม่ได้ทำเพื่อการค้าหรือจำหน่าย จ่าย แจก ทำซ้ำ ดัดแปลง เผยแพร่ข้อมูลใดๆที่มีผู้ถือลิขสิทธิ์ ดังนั้นทางเว็บไซท์ไม่สามารถรับผิดชอบต่อข้อความ หรือข้อมูลใดๆที่สมาชิกเป็นผู้เผยแพร่ได้ ซึ่งสมาชิกได้เห็นชอบและยอมรับในข้อตกลงก่อนการสมัครเข้าใช้งานเรียบร้อยแล้ว


Powered by tbdev.net  Modified by takzido Copyright © 20011 zbeasy.com All rights reserved. Contact us : Page created in 1411402327.4016 seconds View Stats