[จีน] White Vengeance (2011) - ฌ้อปาอ๋อง ศึกแผ่นดินไม่สิ้นแค้น [นำแสดงโดย : หลี่หมิง, หลิวอี้เฟย, เฝิงเส้าเฟิง, เฉินเสี่ยวชุน][Blu-ray.H.264.720p.][Soundtrack Sub ENGLISH | CHINESE]--[ไม่มีเสียงไทย ไม่มีซับไทย]



DownloadWhite.Vengeance.2011.BluRay.720p.DTS.2Audio.x264-CHD_zbeasy.torrent  
Info hashac15373b1c55e128a44069e64629f26824737dac
Social Network
รูปhttp://showss.net/i/hZG.png
รายละเอียด

White Vengeance (2011)
ฌ้อปาอ๋อง ศึกแผ่นดินไม่สิ้นแค้น





ผู้กำกับ : แดเนี่ยล ลี
นักแสดงนำ : หลี่หมิง, เฝิงเส้าเฟิง, หลิวอี้เฟย, เฉินเสี่ยวชุน
สตูดิโอ : UHE
ประเภท : Action, War  
Language : Mandarin | Cantonese (Dual Audio)
Subtitles : ENGLISH | CHINESE .idx.sub

เรื่องย่อ

สุดยอดหนังจีนฟอร์มยักษ์เสี้ยวหนึ่งหน้าประวัติศาสตร์กำเนิด “ฮั่นเกาจู่ฮ่องเต้”  ในช่วงยุคเชื่อมต่อจากจิ๋นซีฮ่องเต้เกิดการแย่งชิงอำนาจกันระหว่างหลิวปังกับเซี่ยงหยู  (หรือฉู่ป้าหวางหรือฌ้อป้าอ๋องที่รู้จักกันดี) ซึ่งเป็นพี่น้องร่วมสาบานได้สัญญาไว้ว่าหากใคร ยึดเมืองเสียนหยางได้ก่อนจะได้เป็นอ๋องแต่แล้วเมื่อหลิวปังบุกยึดเสียนหยาง ได้สำเร็จก่อนเซี่ยงหยูจึงวางแผนฆ่าหลิวปังด้วยการจัดงานเลี้ยงเฉลิมฉลองบังหน้า









Quote:

Complete name                            : E:White.Vengeance.2011.BluRay.720p.DTS.2Audio.x264-CHDWhite.Vengeance.2011.BluRay.720p.DTS.2Audio.x264-CHD.mkv
Format                                   : Matroska
Format version                           : Version 2
File size                                : 6.52 GiB
Duration                                 : 2h 17mn
Overall bit rate                         : 6 783 Kbps
Encoded date                             : UTC 2012-02-10 02:56:49
Writing application                      : mkvmerge v3.2.0 ( Beginnings ) ??? Feb 12 2010 16:46:17
Writing library                          : libebml v0.7.9 + libmatroska v0.8.1

Video
ID                                       : 1
Format                                   : AVC
Format/Info                              : Advanced Video Codec
Format profile                           : High@L4.1
Format settings  ,   CABAC                   : Yes
Format settings  ,   ReFrames                : 10 frames
Codec ID                                 : V_MPEG4/ISO/AVC
Duration                                 : 2h 17mn
Bit rate                                 : 4 632 Kbps
Width                                    : 1 280 pixels
Height                                   : 546 pixels
Display aspect ratio                     : 2.35:1
Frame rate                               : 24.000 fps
Color space                              : YUV
Chroma subsampling                       : 4:2:0
Bit depth                                : 8 bits
Scan type                                : Progressive
Bits/(Pixel*Frame)                       : 0.276
Stream size                              : 4.33 GiB (66%)
Title                                    : White.Vengeance.2011
Writing library                          : x264 core 120 r2146 bcd41db
Encoding settings                        : cabac=1 / ref=10 / deblock=1:-3:-3 / analyse=0x3:0x113 / me=umh / subme=10 / psy=1 / psy_rd=1.05:0.10 / mixed_ref=1 / me_range=32 / chroma_me=1 / trellis=2 / 8x8dct=1 / cqm=0 / deadzone=21  ,  11 / fast_pskip=0 / chroma_qp_offset=-2 / threads=8 / sliced_threads=0 / nr=0 / decimate=1 / interlaced=0 / bluray_compat=0 / constrained_intra=0 / bframes=6 / b_pyramid=2 / b_adapt=2 / b_bias=0 / direct=3 / weightb=1 / open_gop=0 / weightp=2 / keyint=250 / keyint_min=24 / scenecut=40 / intra_refresh=0 / rc_lookahead=40 / rc=2pass / mbtree=0 / bitrate=4632 / ratetol=1.0 / qcomp=0.70 / qpmin=0 / qpmax=69 / qpstep=4 / cplxblur=20.0 / qblur=0.5 / vbv_maxrate=40000 / vbv_bufsize=30000 / nal_hrd=none / ip_ratio=1.40 / pb_ratio=1.30 / aq=2:0.80
Language                                 : Chinese
Default                                  : No
Forced                                   : No

Audio #1
ID                                       : 2
Format                                   : AC-3
Format/Info                              : Audio Coding 3
Mode extension                           : CM (complete main)
Codec ID                                 : A_AC3
Duration                                 : 2h 17mn
Bit rate mode                            : Constant
Bit rate                                 : 640 Kbps
Channel(s)                               : 6 channels
Channel positions                        : Front: L C R  ,   Side: L R  ,   LFE
Sampling rate                            : 48.0 KHz
Bit depth                                : 16 bits
Compression mode                         : Lossy
Stream size                              : 630 MiB (9%)
Title                                    : DD5.1 640K Mandarin
Language                                 : Chinese
Default                                  : Yes
Forced                                   : No

Audio #2
ID                                       : 3
Format                                   : DTS
Format/Info                              : Digital Theater Systems
Codec ID                                 : A_DTS
Duration                                 : 2h 17mn
Bit rate mode                            : Constant
Bit rate                                 : 1 510 Kbps
Channel(s)                               : 6 channels
Channel positions                        : Front: L C R  ,   Side: L R  ,   LFE
Sampling rate                            : 48.0 KHz
Bit depth                                : 24 bits
Compression mode                         : Lossy
Stream size                              : 1.45 GiB (22%)
Title                                    : DTS-CORE 1536K Cantonese
Language                                 : Chinese
Default                                  : No
Forced                                   : No





----------------------------------------------------------------------------------------------------------------------------------

เครดิต คุณ Khom2524 เว็บเพื่อนบ้าน ขอบคุณครับ

ประเภทภาพยนตร์ Hi-Def, Blu-ray
การเคลื่อนไหวครั้งสุดท้าย 456d 00:05:55 ago
ขนาด6.54 GB (7,026,423,753 bytes)
เริ่ม2012-05-08 14:29:51
คนดู793
คนโหลด424
ความเร็วไม่มีความเร็วในการเชื่อมต่อ
โหลดเสร็จ177 time(s)
เจ้าของกิ๊กยูสเซอร์สุดยอดแห่ง zbeasy
เรทติ้ง1 Point   
Num files
[See full list]
4 files
Peers
[See full list]
0 seeder(s), 0 leecher(s) = 0 peer(s) total
ของขวัญวันเกิด, ของขวัญเซอร์ไพรส์, พรีออเดอร์, preorder, ซื้อของอีเบย์
เว็บไซต์นี้ เป็นเว็บไซต์ที่สมาชิกทุกท่าน สามารถนำข้อมูลเข้ามาแลกเปลี่ยนกันเพื่อความบันเทิงส่วนบุคคล ซึ่งทางเว็บไซต์เป็นเพียงสื่อกลางในการในการระบุว่าสมาชิกท่านใดมีข้อมูลนั้นๆอยู่เท่านั้น โดยแฟ้มข้อมูลต่างๆที่อยู่ในเว็บไซต์แห่งนี้ ไม่สามารถเปิดดูออนไลน์ผ่านเว็บไซต์ได้แต่อย่างใด จุดประสงค์ของทางเว็บไซต์ไม่ได้ทำเพื่อการค้าหรือจำหน่าย จ่าย แจก ทำซ้ำ ดัดแปลง เผยแพร่ข้อมูลใดๆที่มีผู้ถือลิขสิทธิ์ ดังนั้นทางเว็บไซท์ไม่สามารถรับผิดชอบต่อข้อความ หรือข้อมูลใดๆที่สมาชิกเป็นผู้เผยแพร่ได้ ซึ่งสมาชิกได้เห็นชอบและยอมรับในข้อตกลงก่อนการสมัครเข้าใช้งานเรียบร้อยแล้ว


Powered by tbdev.net  Modified by takzido Copyright © 20011 zbeasy.com All rights reserved. Contact us : Page created in 1414197449.4441 seconds View Stats