[ใหม่แจ่มแจ๋ว]-[Mini-HD] John Carter - นักรบสงครามข้ามจักรวาล [Remux.DTS.720p.][Modified]-[เสียงอังกฤษ+พากย์ไทยโรง+บรรยายอังกฤษ]



DownloadJohn Carter 2012 mHD Bluray DTS 5.1 x264-BAS.mkv_zbeasy.torrent  
Info hash38a81781b3d27e752397a96767b61eb46114b3e2
Social Network
รูปhttp://showss.net/i/RU8.jpg
รายละเอียด

John Carter (2012)
นักรบสงครามข้ามจักรวาล




Quote:

John Carter ดัดแปลงจาก นิยายคลาสสิคของ เอ็ดการ์ ไรซ์ เรื่อง A Princess of Mars กลายมาเป็นหนังแอ็คชั่นผจญภัยที่มีเรื่องราวเกิดขึ้นบนดาวเคราะห์ลึกลับชื่อ บาร์ซูม สถานที่ซึ่งมีสิ่งมีชีวิตแปลกตาทั้ง กลุ่มมนุษย์เผ่าตัวแดง, เฮเลียมไมท์, โซดันแกนส์, ธาร์คส์ และ เผ่าเธิร์ส

จากเดิมที่เป็นดินแดนแสนอุดมสมบูรณ์ บัดนี้ได้กลายเป็นดวงดาวที่กำลังจะล่มสลายเหตุเพราะความขัดแย้งอันยาวกว่าหมื่นปี ระหว่างพวกโซดันแกนส์ ที่นำโดย แซบบ์ ธาน และ พวกเฮเลียมไมท์ ที่นำโดย เดจาห์ ธอริส (รับบทโดย ลินน์ คอลลินน์) เจ้าหญิงนักรบผู้เลอโฉม ซึ่งจอห์น คาร์เตอร์ (รับบทโดย เทย์เลอร์ คิตซ์) อดีตนายทหารผ่านศึกผู้เบื่อหน่ายสงสรามได้ถูกส่งตัวมาที่นี่อย่างไม่คาดฝัน!


D:bbbppp999completeJohn Carter 2012 mHD Bluray DD5.1 x264-BAS.mkv
 General
    Unique ID : 221115101932559444365760868762032512687 (0xA65938377F33ACB3BCA773C7CFB79EAF)
    Complete name : D:bbbppp999completeJohn Carter 2012 mHD Bluray DD5.1 x264-BAS.mkv
    Format : Matroska
    Format version : Version 2
    File size : 3.79 GiB
    Duration : 2h 12mn
    Overall bit rate : 4 108 Kbps
    Movie name : John Carter 2012 ~ encoder BAS
    Encoded date : UTC 2012-05-20 02:37:23
    Writing application : mkvmerge v3.4.0 ( Rapunzel ) built on May 15 2010 09:38:20
    Writing library : libebml v0.8.0 + libmatroska v0.9.0
 Video #1
    ID : 1
    Format : AVC
    Format/Info : Advanced Video Codec
    Format profile : High@L4.1
    Format settings     ,      CABAC : Yes
    Format settings     ,      ReFrames : 12 frames
    Codec ID : V_MPEG4/ISO/AVC
    Duration : 2h 12mn
    Bit rate : 2 325 Kbps
    Width : 1 280 pixels
    Height : 534 pixels
    Display aspect ratio : 2.40:1
    Frame rate : 23.976 fps
    Color space : YUV
    Chroma subsampling : 4:2:0
    Bit depth : 8 bits
    Scan type : Progressive
    Bits/(Pixel*Frame) : 0.142
    Stream size : 2.14 GiB (57%)
    Title : John Carter 2012 mHD Bluray DD5.1 x264-EPiK
    Writing library : x264 core 120 r2164 da19765
    Encoding settings : cabac=1 / ref=12 / deblock=1:-3:-3 / analyse=0x3:0x113 / me=umh / subme=9 / psy=1 / psy_rd=1.10:0.00 / mixed_ref=1 / me_range=16 / chroma_me=1 / trellis=2 / 8x8dct=1 / cqm=0 / deadzone=21     ,     11 / fast_pskip=0 / chroma_qp_offset=-2 / threads=6 / sliced_threads=0 / nr=0 / decimate=0 / interlaced=0 / bluray_compat=0 / constrained_intra=0 / bframes=7 / b_pyramid=2 / b_adapt=2 / b_bias=0 / direct=3 / weightb=1 / open_gop=0 / weightp=2 / keyint=240 / keyint_min=23 / scenecut=40 / intra_refresh=0 / rc=crf / mbtree=0 / crf=21.5 / qcomp=0.70 / qpmin=0 / qpmax=69 / qpstep=4 / ip_ratio=1.40 / pb_ratio=1.30 / aq=1:0.85
    Language : English
    Default : No
    Forced : No
    Matrix coefficients : BT.709-5     ,      BT.1361     ,      IEC 61966-2-4 709     ,      SMPTE RP177
 Audio #2
    ID : 2
    Format : AC-3
    Format/Info : Audio Coding 3
    Mode extension : CM (complete main)
    Codec ID : A_AC3
    Duration : 2h 12mn
    Bit rate mode : Constant
    Bit rate : 192 Kbps
    Channel(s) : 2 channels
    Channel positions : Front: L R
    Sampling rate : 48.0 KHz
    Bit depth : 16 bits
    Compression mode : Lossy
    Stream size : 181 MiB (5%)
    Title : Thai Rong
    Language : Thai
    Default : No
    Forced : Yes
 Audio #3
    ID : 3
    Format : DTS
    Format/Info : Digital Theater Systems
    Codec ID : A_DTS
    Duration : 2h 12mn
    Bit rate mode : Constant
    Bit rate : 1 510 Kbps
    Channel(s) : 6 channels
    Channel positions : Front: L C R     ,      Side: L R     ,      LFE
    Sampling rate : 48.0 KHz
    Bit depth : 24 bits
    Compression mode : Lossy
    Delay relative to video : 11ms
    Stream size : 1.39 GiB (37%)
    Title : English DTS
    Language : English
    Default : No
    Forced : No
 Text #4
    ID : 4
    Format : UTF-8
    Codec ID : S_TEXT/UTF8
    Codec ID/Info : UTF-8 Plain Text
    Title : English
    Language : English
    Default : No
    Forced : Yes
 Text #5
    ID : 5
    Format : UTF-8
    Codec ID : S_TEXT/UTF8
    Codec ID/Info : UTF-8 Plain Text
    Title : English Forced
    Language : English
    Default : No
    Forced : No







ขอบคุณเสียงไทยโรง ของท่าน tumkeng

อ่านก่อนโหลดซักนิด

ผมพึ่งอัพหนัง HD ที่โมเองเป็นครั้งแรกผิดพลาดอย่างไงขออภัยด้วยนะครับ

หนังนำมาแบ่งปันแบ่งความบันเทิงเท่านั้น ขอความกรุณาได้โปรดอย่านำไปขายเพื่อการพาณิชย์โดยเด็ดขาดนะครับ
และท่านใดเอาไฟล์ไปปล่อยต่อ ขอความกรุณาตัดเครดิตชื่อผมออกไปด้วย
ไม่ต้องลงเครดิตไฟล์นะครับ ขอบคุณครับ



-------------------------------------------------------------------------------------------------------------------------------

เครดิต คุณ @@@iiiBASiii@@@ เว็บเพื่อนบ้าน ขอบคุณครับ
ประเภทภาพยนตร์ Hi-Def, Blu-ray
การเคลื่อนไหวครั้งสุดท้าย 7:55:34 ago
ขนาด3.79 GB (4,068,052,017 bytes)
เริ่ม2012-05-20 12:52:36
คนดู1239
คนโหลด822
ความเร็วไม่มีความเร็วในการเชื่อมต่อ
โหลดเสร็จ518 time(s)
เจ้าของกิ๊กยูสเซอร์สุดยอดแห่ง zbeasy
เรทติ้ง8 Point   
Seeders
[Hide list]
0 Seeder(s)
Leechers
[Hide list]
0 Leecher(s)
ของขวัญวันเกิด, ของขวัญเซอร์ไพรส์, พรีออเดอร์, preorder, ซื้อของอีเบย์
เว็บไซต์นี้ เป็นเว็บไซต์ที่สมาชิกทุกท่าน สามารถนำข้อมูลเข้ามาแลกเปลี่ยนกันเพื่อความบันเทิงส่วนบุคคล ซึ่งทางเว็บไซต์เป็นเพียงสื่อกลางในการในการระบุว่าสมาชิกท่านใดมีข้อมูลนั้นๆอยู่เท่านั้น โดยแฟ้มข้อมูลต่างๆที่อยู่ในเว็บไซต์แห่งนี้ ไม่สามารถเปิดดูออนไลน์ผ่านเว็บไซต์ได้แต่อย่างใด จุดประสงค์ของทางเว็บไซต์ไม่ได้ทำเพื่อการค้าหรือจำหน่าย จ่าย แจก ทำซ้ำ ดัดแปลง เผยแพร่ข้อมูลใดๆที่มีผู้ถือลิขสิทธิ์ ดังนั้นทางเว็บไซท์ไม่สามารถรับผิดชอบต่อข้อความ หรือข้อมูลใดๆที่สมาชิกเป็นผู้เผยแพร่ได้ ซึ่งสมาชิกได้เห็นชอบและยอมรับในข้อตกลงก่อนการสมัครเข้าใช้งานเรียบร้อยแล้ว


Powered by tbdev.net  Modified by takzido Copyright © 20011 zbeasy.com All rights reserved. Contact us : Page created in 1411178029.6714 seconds View Stats