[Mini-hidef-Animation] From Up on Poppy Hill (ป๊อปปี้ ฮิลล์ ร่ำร้องขอปาฏิหาริย์) 2011 720p H.Q.-CtHts[s.th-Japanese sub th-eng]



DownloadZB [Mini-hidef-Animation] From Up on Poppy Hill (ป๊อปปี้ ฮิลล์ ร่ำร้องขอปาฏิหาริย์) 2011 720p H.Q.-CtHts_private.torrent  
Info hashd5f02aceaeb44f5f3097cdc4a164d237bdd7c148
Social Network
รูปhttp://postto.me/show.php?id=7ce2466204c30e9cd36c889e497e1f93
รายละเอียด[Mini-hidef-Animation] From Up on Poppy Hill (ป๊อปปี้ ฮิลล์ ร่ำร้องขอปาฏิหาริย์) 2011 720p H.Q.-CtHts
-ต้นฉบับเป็น 1080p ของท่าน ซิ่วท้อ ฮก ลก ซิ่ว ขอขอบคุณท่านไว้ ณ ที่นี้ด้วยนะครับ เสียงไทย dvd master
-Rip-by komkam-CtHts...............................สนับสนุนการแบ่งปันโดย :

From Up on Poppy Hill (ป๊อปปี้ ฮิลล์ ร่ำร้องขอปาฏิหาริย์) 2011
ป๊อปปี้ ฮิลล์ ร่ำร้องขอปาฏิหาริย์” เป็นภาพยนตร์แอนิเมชั่นจากผลงานการกำกับฯ ของ โกโระ มิยาซากิ แห่ง Tales from Earthsea นั่นเอง

ระยะหลังอะนิเมะจากสตูดิโอแห่งนี้ ได้รับการซื้อมาฉายในโรงภาพยนตร์บ้านเรา เรื่องราวความรักของหนุ่มสาวในวัยไฮสกูล ที่ย้อนวันเวลาไปอยู่ในช่วงปี 1963 ที่ญี่ปุ่นกำลังจะจัดโอ
ลิมปิกเกมส์ (ช่วงเวลาที่ใกล้เคียงกับใน “Always: Sunset On The Third Street 3″ ที่เกิดขึ้นในปี 1964) ช่วงที่ญี่ปุ่นกำลังฟื้นฟูตนเองและกำลังเดินหน้าพัฒนาตัวเอง
อย่างเต็มกำลัง

ในเมืองที่แสนเงียบสงบริมทะเล ณ บ้านหลังโตที่เคยเป็นโรงพยาบาลมาก่อน ในบ้านที่มีแต่ผู้หญิง และมี อุมิ สาวน้อยนางเอกของเรามีเป็นหัวเรือหลักในการดูแลด้านอาหารการกินของ
คนในบ้าน

สิ่งที่คนในแถบนั้นรู้กันดีก็คือ เธอคือสาวน้อยที่ชักธงสัญญาณขึ้นสู่ยอดเสาทุกวันไม่เคยขาดตั้งแต่พ่อของเธอที่เป็นทหารเรือได้เสียชีวิตไป เหมือนเธอกำลังรอสัญญาณตอบกลับจากใคร
สักคน คนที่พ่อจะส่งมาให้ เธอหลงรัก ชุน เด็กชายวัยไฮสกูลในโรงเรียนเดียวกัน ก่อนจะได้พบเรื่องบางอย่างที่ทำให้เธอต้องผ่านพ้นมัน เพื่อเรียนรู้ เพื่อเติบโต…ไปด้วยกัน

จากแฮนด์บิลทำให้ผมรู้เพิ่มเติมมาว่า From Up On Poppy Hill นั้นสร้างมาจากหนังสือการ์ตูนที่ตีพิมพ์ในช่วงปี 1980 ในนิตยสารผู้หญิงรายเดือน Nakayoshi ผู้เขียน
เป็นผู้ชาย จึงน่าจะเป็นเหตุให้ในอะนิเมะเรื่องนี้ กล่าวถึงเรื่องราวความวุ่นวายในโรงเรียน และมีคำว่า “ประชาธิปไตย” เข้ามาเกี่ยวข้อง กระนั้น เรื่องราวความรักของสองคนนี้ก็ยังชวน
อ่อนไหวมากทีเดียวสำหรับผู้ชม

แต่สิ่งที่มากกว่านั้น ก็คงเป็นความอ่อนไหวของผมในแง่มุมของครอบครัว ซึ่งมันให้ผมถึงกับเสียน้ำตาให้กับอะนิเมะอยู่หลายหน ในขณะงานด้านภาพ ยังคงละเมียดละไม สวยงาม และ
ตรึงตาตลอดเวลาของหนัง ตามที่ผลงานของสตูดิโอจิบลิเคยเป็นมา























Format                           : Matroska
File size                        : 3.13 GiB
Duration                         : 1h 30mn
Overall bit rate                 : 4 931 Kbps
Movie name                       : From Up on Poppy Hill
Encoded date                     : UTC 2012-10-25 22:08:44
Writing application              : mkvmerge v3.4.0 ('Rapunzel') built on May 15 2010 09:38:20
Writing library                  : libebml v0.8.0 + libmatroska v0.9.0

Video
ID                               : 1
Format                           : AVC
Format/Info                      : Advanced Video Codec
Format profile                   : High@L5.1
Format settings, CABAC           : Yes
Format settings, ReFrames        : 8 frames
Format settings, GOP             : N=15
Codec ID                         : V_MPEG4/ISO/AVC
Duration                         : 1h 30mn
Bit rate mode                    : Variable
Bit rate                         : 4 159 Kbps
Maximum bit rate                 : 300 Mbps
Width                            : 1 280 pixels
Height                           : 692 pixels
Display aspect ratio             : 1.850
Frame rate                       : 23.976 fps
Color space                      : YUV
Chroma subsampling               : 4:2:0
Bit depth                        : 8 bits
Scan type                        : Progressive
Bits/(Pixel*Frame)               : 0.196
Stream size                      : 2.58 GiB (82%)
Title                            : [Mini-hidef-Animation] From Up on Poppy Hill (ป๊อปปี้ ฮิลล์ ร่ำร้องขอปาฏิหาริย์) 2011 720p H.Q.-CtHts
Writing library                  : x264 core 125 r2208 d9d2288
Encoding settings                : cabac=1 / ref=8 / deblock=1:0:0 / analyse=0x3:0x133 / me=umh / subme=10 / psy=1 / psy_rd=1.00:0.00 / mixed_ref=1 / me_range=24 / chroma_me=1 / trellis=2 / 8x8dct=1 / cqm=0 / deadzone=21,11 / fast_pskip=1 / chroma_qp_offset=-2 / threads=9 / lookahead_threads=1 / sliced_threads=0 / nr=0 / decimate=1 / interlaced=0 / bluray_compat=0 / constrained_intra=0 / bframes=8 / b_pyramid=0 / b_adapt=2 / b_bias=0 / direct=3 / weightb=1 / open_gop=0 / weightp=2 / keyint=240 / keyint_min=24 / scenecut=40 / intra_refresh=0 / rc_lookahead=60 / rc=2pass / mbtree=1 / bitrate=4159 / ratetol=1.0 / qcomp=0.60 / qpmin=0 / qpmax=69 / qpstep=4 / cplxblur=20.0 / qblur=0.5 / vbv_maxrate=300000 / vbv_bufsize=300000 / nal_hrd=vbr / ip_ratio=1.40 / aq=1:1.00
Language                         : Japanese

Audio #1
ID                               : 2
Format                           : AC-3
Format/Info                      : Audio Coding 3
Mode extension                   : CM (complete main)
Codec ID                         : A_AC3
Duration                         : 1h 30mn
Bit rate mode                    : Constant
Bit rate                         : 384 Kbps
Channel(s)                       : 6 channels
Channel positions                : Front: L C R, Side: L R, LFE
Sampling rate                    : 48.0 KHz
Bit depth                        : 16 bits
Compression mode                 : Lossy
Stream size                      : 250 MiB (8%)
Title                            : ac3 6ch master
Language                         : Thai

Audio #2
ID                               : 3
Format                           : AC-3
Format/Info                      : Audio Coding 3
Mode extension                   : CM (complete main)
Codec ID                         : A_AC3
Duration                         : 1h 30mn
Bit rate mode                    : Constant
Bit rate                         : 384 Kbps
Channel(s)                       : 5 channels
Channel positions                : Front: L C R, Side: L R
Sampling rate                    : 48.0 KHz
Bit depth                        : 16 bits
Compression mode                 : Lossy
Stream size                      : 250 MiB (8%)
Title                            : ac3 6ch br-master
Language                         : Japanese

Text #1
ID                               : 4
Format                           : VobSub
Muxing mode                      : zlib
Codec ID                         : S_VOBSUB
Codec ID/Info                    : The same subtitle format used on DVDs
Title                            : Thai From Master
Language                         : Thai

Text #2
ID                               : 5
Format                           : UTF-8
Codec ID                         : S_TEXT/UTF8
Codec ID/Info                    : UTF-8 Plain Text
Title                            : srt
Language                         : English

Coming together.Happy to share.
  สังคมแห่งการแบ่งปันโดยทีมงาน CtHts

[nfsphuket / rimudi / darkvador / JFC / netboy / darnphuket / rakkhunna /freeandfree/ GG44 / komkam / maxbomb
/ bOyziOO / DRAGONFAT / vzio / AnfieldRoad /Champ14Za / utd[United] / KingMovie / yorukung / IINOYII /
Legendrider / kiatplk / supanyap / jukjunjao / khampeeaew / sakworbit / LiverPoolS/stang/boysiambit/ panad /
jeab200 /mozed/ dnxy /EarthStar /xmen9 / apollo14 /~PORSCHE~/ NongZEZA~ / vdoboy / uthai3590 and Originals]
ประเภทภาพยนตร์ Hi-Def, Blu-ray
การเคลื่อนไหวครั้งสุดท้าย 17d 21:37:36 ago
ขนาด3.13 GB (3,360,116,624 bytes)
เริ่ม2012-10-26 18:44:28
คนดู622
คนโหลด244
ความเร็วไม่มีความเร็วในการเชื่อมต่อ
โหลดเสร็จ106 time(s)
เจ้าของkomkamสุดยอดแห่ง zbeasy
เรทติ้ง2 Point   
Num files1 files
File list
[Hide list]
PathSize
[Mini-hidef-Animation] From Up on Poppy Hill (3.13 GB
Peers
[See full list]
0 seeder(s), 0 leecher(s) = 0 peer(s) total
ของขวัญวันเกิด, ของขวัญเซอร์ไพรส์, พรีออเดอร์, preorder, ซื้อของอีเบย์
เว็บไซต์นี้ เป็นเว็บไซต์ที่สมาชิกทุกท่าน สามารถนำข้อมูลเข้ามาแลกเปลี่ยนกันเพื่อความบันเทิงส่วนบุคคล ซึ่งทางเว็บไซต์เป็นเพียงสื่อกลางในการในการระบุว่าสมาชิกท่านใดมีข้อมูลนั้นๆอยู่เท่านั้น โดยแฟ้มข้อมูลต่างๆที่อยู่ในเว็บไซต์แห่งนี้ ไม่สามารถเปิดดูออนไลน์ผ่านเว็บไซต์ได้แต่อย่างใด จุดประสงค์ของทางเว็บไซต์ไม่ได้ทำเพื่อการค้าหรือจำหน่าย จ่าย แจก ทำซ้ำ ดัดแปลง เผยแพร่ข้อมูลใดๆที่มีผู้ถือลิขสิทธิ์ ดังนั้นทางเว็บไซท์ไม่สามารถรับผิดชอบต่อข้อความ หรือข้อมูลใดๆที่สมาชิกเป็นผู้เผยแพร่ได้ ซึ่งสมาชิกได้เห็นชอบและยอมรับในข้อตกลงก่อนการสมัครเข้าใช้งานเรียบร้อยแล้ว


Powered by tbdev.net  Modified by takzido Copyright © 20011 zbeasy.com All rights reserved. Contact us : Page created in 1416965040.2345 seconds View Stats