[ฝรั่ง]-[ใหม่!ร้อนๆ CtHts..จัดให้จ้า~ 1080p] The Hobbit : An Unexpected Journey (2012) - เดอะ ฮอบบิท : การผจญภัยสุดคาดคิด [Encode.DTS.1080p@ZEZA]-[Modified]-[เสียงอังกฤษ DTS+พากย์ไทยโรง]-[บรรยายไทย+อังกฤษ] {บรรยายไทยโดย NongZEZA~}



DownloadThe.Hobbit.An.Unexpected.Journey.2012.1080p.BluRay.x264.DTS_by NongZEZA@CtHts.mkv.torrent  
Info hashe2468eab047d7cbe7dad880f671c2ad4d2e708fa
Social Network
รูปhttp://www.jenpic.com/images/2013/02/28/020-Cthtsw8v1P.jpg
รายละเอียด

...กลับคืนสู่มัชฉิมโลกอีกครั้งใน The Hobbit: An Unexpected Journey นี่คือภาคต้นก่อนเรื่องราวใน The Lord of the Ring
หนังบอกเล่าเรื่องราวการเดินทางในวัยหนุ่มของบิลโบ้ (มาร์ติน ฟรีแมน) ลุงของโฟรโด้ (เอลิจาห์ วู้ด)
พร้อมด้วยพ่อมดเทาแกนดลาร์ฟ (เอียน แม็คเคลเลน) และคณะคนแคระที่นำโดย ธอริน โอเกนชีลด์ (ริชาร์ด มาร์มิเทจ) สู่หุบเขาเดียวดาย
เพื่อแย่งชิงสมบัติที่สูญหายคืนมาจากมังกรสม็อก (เบเนดิค คัมเบอร์แบทช์) นำพาสู่การผจญภัยอันยิ่งใหญ่
และพบพานกับตัวละครอันมหัศจรรย์มากมาย!!!

Format                                   : Matroska
Format version                           : Version 4 / Version 2
File size                                : 13.5 GiB
Duration                                 : 2h 49mn
Overall bit rate                         : 11.4 Mbps
Movie name                               : The.Hobbit.An.Unexpected.Journey.2012.1080p.BluRay.x264.DTS_by NongZEZA@CtHts
Encoded date                             : UTC 2010-02-22 21:41:31
Writing application                      : mkvmerge v5.9.0 ( On The Loose ) built on Dec  9 2012 15:37:01
Writing library                          : libebml v1.3.0 + libmatroska v1.4.0

Video
ID                                       : 1
Format                                   : AVC
Format/Info                              : Advanced Video Codec
Format profile                           : High@L4.1
Format settings, CABAC                   : Yes
Format settings, ReFrames                : 5 frames
Codec ID                                 : V_MPEG4/ISO/AVC
Duration                                 : 2h 49mn
Bit rate                                 : 9 559 Kbps
Width                                    : 1 920 pixels
Height                                   : 800 pixels
Display aspect ratio                     : 2.40:1
Frame rate mode                          : Constant
Frame rate                               : 23.976 fps
Color space                              : YUV
Chroma subsampling                       : 4:2:0
Bit depth                                : 8 bits
Scan type                                : Progressive
Bits/(Pixel*Frame)                       : 0.260
Stream size                              : 11.2 GiB (83%)
Default                                  : Yes
Forced                                   : No

Audio #1
ID                                       : 2
Format                                   : DTS
Format/Info                              : Digital Theater Systems
Mode                                     : 16
Format settings, Endianness              : Big
Codec ID                                 : A_DTS
Duration                                 : 2h 49mn
Bit rate mode                            : Constant
Bit rate                                 : 1 509 Kbps
Channel(s)                               : 6 channels
Channel positions                        : Front: L C R, Side: L R, LFE
Sampling rate                            : 48.0 KHz
Bit depth                                : 24 bits
Compression mode                         : Lossy
Stream size                              : 1.79 GiB (13%)
Title                                    : English DTS
Language                                 : English
Default                                  : Yes
Forced                                   : Yes

Audio #2
ID                                       : 3
Format                                   : AC-3
Format/Info                              : Audio Coding 3
Mode extension                           : CM (complete main)
Format settings, Endianness              : Big
Codec ID                                 : A_AC3
Duration                                 : 2h 49mn
Bit rate mode                            : Constant
Bit rate                                 : 192 Kbps
Channel(s)                               : 2 channels
Channel positions                        : Front: L R
Sampling rate                            : 48.0 KHz
Bit depth                                : 16 bits
Compression mode                         : Lossy
Delay relative to video                  : 1s 865ms
Stream size                              : 233 MiB (2%)
Title                                    : Thai Rong
Language                                 : Thai
Default                                  : No
Forced                                   : No

Text #1
ID                                       : 4
Format                                   : VobSub
Codec ID                                 : S_VOBSUB
Codec ID/Info                            : The same subtitle format used on DVDs
Title                                    : Thai 480p By NongZEZA~
Language                                 : Thai
Default                                  : No
Forced                                   : No

Text #2
ID                                       : 5
Format                                   : VobSub
Codec ID                                 : S_VOBSUB
Codec ID/Info                            : The same subtitle format used on DVDs
Title                                    : Thai 1080p By NongZEZA~
Language                                 : Thai
Default                                  : Yes
Forced                                   : Yes

Text #3
ID                                       : 6
Format                                   : VobSub
Codec ID                                 : S_VOBSUB
Codec ID/Info                            : The same subtitle format used on DVDs
Title                                    : Thai 1080p Yellow By NongZEZA~
Language                                 : Thai
Default                                  : No
Forced                                   : No

Text #4
ID                                       : 7
Format                                   : VobSub
Codec ID                                 : S_VOBSUB
Codec ID/Info                            : The same subtitle format used on DVDs
Title                                    : Thai 1080p Out By NongZEZA~
Language                                 : Thai
Default                                  : No
Forced                                   : No

Text #5
ID                                       : 8
Format                                   : PGS
Codec ID                                 : S_HDMV/PGS
Codec ID/Info                            : The same subtitle format used on BDs/HD-DVDs
Title                                    : Thai PGS By NongZEZA~
Language                                 : Thai
Default                                  : No
Forced                                   : No

Text #6
ID                                       : 9
Format                                   : PGS
Codec ID                                 : S_HDMV/PGS
Codec ID/Info                            : The same subtitle format used on BDs/HD-DVDs
Title                                    : Thai PGS Out By NongZEZA~
Language                                 : Thai
Default                                  : No
Forced                                   : No

Text #7
ID                                       : 10
Format                                   : PGS
Codec ID                                 : S_HDMV/PGS
Codec ID/Info                            : The same subtitle format used on BDs/HD-DVDs
Title                                    : Thai PGS Yellow By NongZEZA~
Language                                 : Thai
Default                                  : No
Forced                                   : No

Text #8
ID                                       : 11
Format                                   : UTF-8
Codec ID                                 : S_TEXT/UTF8
Codec ID/Info                            : UTF-8 Plain Text
Title                                    : English
Language                                 : English
Default                                  : No
Forced                                   : No









ได้โปรดสละเวลาอ่านก่อนโหลดนิดนึ่งนะคะ

NongZEZA~ จัดทำให้พิเศษ...ชมรอมาสเตอร์ไทยออกค่ะ

บรรยายไทยแปลและเรียบเรียง โดย..NongZEZA~  

ผิดพลาดประการใด ต้องขออภัยด้วยค่ะ

ส่วนท่านใดไม่ชัวร์ ก็ผ่านก่อนได้นะคะ  

ขอบคุณค่ะ  

Modified & ส่งมอบ โดย :  NongZEZA~ Vs jukjunjao  
และขอขอบคุณไฟล์เสียงไทยโรงจาก พี่โม มันส์ มึน   มากค่ะ    
ประเภทภาพยนตร์ Hi-Def, Blu-ray
การเคลื่อนไหวครั้งสุดท้าย 2d 05:06:53 ago
ขนาด13.46 GB (14,447,413,049 bytes)
เริ่ม2013-03-01 22:07:10
คนดู352
คนโหลด270
ความเร็วไม่มีความเร็วในการเชื่อมต่อ
โหลดเสร็จ76 time(s)
เจ้าของนนท์สุดยอดแห่ง zbeasy
เรทติ้ง1 Point   
Peers
[See full list]
0 seeder(s), 0 leecher(s) = 0 peer(s) total
ของขวัญวันเกิด, ของขวัญเซอร์ไพรส์, พรีออเดอร์, preorder, ซื้อของอีเบย์
เว็บไซต์นี้ เป็นเว็บไซต์ที่สมาชิกทุกท่าน สามารถนำข้อมูลเข้ามาแลกเปลี่ยนกันเพื่อความบันเทิงส่วนบุคคล ซึ่งทางเว็บไซต์เป็นเพียงสื่อกลางในการในการระบุว่าสมาชิกท่านใดมีข้อมูลนั้นๆอยู่เท่านั้น โดยแฟ้มข้อมูลต่างๆที่อยู่ในเว็บไซต์แห่งนี้ ไม่สามารถเปิดดูออนไลน์ผ่านเว็บไซต์ได้แต่อย่างใด จุดประสงค์ของทางเว็บไซต์ไม่ได้ทำเพื่อการค้าหรือจำหน่าย จ่าย แจก ทำซ้ำ ดัดแปลง เผยแพร่ข้อมูลใดๆที่มีผู้ถือลิขสิทธิ์ ดังนั้นทางเว็บไซท์ไม่สามารถรับผิดชอบต่อข้อความ หรือข้อมูลใดๆที่สมาชิกเป็นผู้เผยแพร่ได้ ซึ่งสมาชิกได้เห็นชอบและยอมรับในข้อตกลงก่อนการสมัครเข้าใช้งานเรียบร้อยแล้ว


Powered by tbdev.net  Modified by takzido Copyright © 20011 zbeasy.com All rights reserved. Contact us : Page created in 1398402711.658 seconds View Stats